#TITLE:Japanese Ninja No.1;
#SUBTITLE:;
#ARTIST:Megurine Luka;
#TITLETRANSLIT:;
#SUBTITLETRANSLIT:;
#ARTISTTRANSLIT:;
#CREDIT:;
#BANNER:Megurine Luka - Japanese Ninja No.1-banner.jpg;
#BACKGROUND:Megurine Luka - Japanese Ninja No.1-bg.jpg;
#LYRICSPATH:Megurine Luka - Japanese Ninja No.1.lrc;
#CDTITLE:CDTitle.png;
#MUSIC:Megurine Luka - Japanese Ninja No.1.ogg;
#OFFSET:0.380;
#SAMPLESTART:7.380;
#SAMPLELENGTH:12.000;
#SELECTABLE:YES;
#BPMS:0.000=170.000;
#STOPS:;
#BGCHANGES:;
// cache tags:
#FIRSTBEAT:20.500;
#LASTBEAT:257.500;
#SONGFILENAME:songs/Vocaloid Party/Megurine Luka - Japanese Ninja No.1/Megurine Luka - Japanese Ninja No.1.sm;
#HASMUSIC:1;
#HASBANNER:1;
#MUSICLENGTH:92.954;
// end cache tags

//---------------dance-single - ----------------
#NOTES:
     dance-single:
     :
     Challenge:
     10:
     0.847,0.935,0.463,0.161,0.554,493.000,43.000,15.000,13.000,0.000:
0000
0000
0000
0000
,
0000
0000
0000
0000
,
0000
0000
0000
0000
,
0000
0000
0000
0000
,
0000
0000
0000
0000
,
0000
0000
1000
0001
1000
0001
1000
0000
0001
0000
0010
0000
0100
0000
0000
0000
,
1000
0000
0100
0000
1100
0000
0102
0000
0000
0003
1002
0000
0000
0003
0102
0000
,
0000
0003
0001
0000
1000
0000
1001
0000
0000
0000
0010
0000
1000
0000
0001
0000
,
0100
0010
0100
0000
0101
0000
0101
0000
0000
0000
0010
0000
0100
0010
1000
0000
,
0000
0000
0010
0100
0010
0100
0010
0000
1000
0000
0010
1000
0010
0000
0100
0001
,
0100
0000
0010
0100
0010
0000
2010
0000
0000
0000
3001
0100
0001
0000
1000
0001
,
1000
0000
0100
1000
0100
0000
0010
0001
0010
0000
0100
1000
0100
0000
0010
0001
,
0010
0000
0100
1000
0100
0000
2010
0000
0000
0000
3001
1000
0001
0000
0010
0100
,
0010
0000
0001
1000
0001
0000
0010
0100
0010
0000
0001
0100
0010
0000
1000
0000
,
0001
1000
0010
0000
0110
0000
0100
0001
1000
0000
0001
0100
0010
0000
0100
0000
,
0010
1000
0100
0000
0110
0000
1000
0010
0100
0000
0001
0100
0010
1000
0001
0100
,
0010
0000
0100
0000
0110
0000
0010
0000
1000
0001
0100
0010
1000
0001
0010
0000
,
0000
0000
0100
0000
0010
0000
0100
0000
1000
0000
0000
0000
0001
0100
0001
0100
,
0001
0000
0000
0001
1000
0000
0010
1000
1020
0000
0000
0000
MM0M
0000
M00M
0000
,
MM0M
0000
0M0M
0000
MM3M
0000
0000
0010
0100
0000
0000
0000
0001
0000
1000
0000
,
0100
1000
0010
0000
0000
0000
0110
0000
0000
0000
0100
0000
0001
0000
0000
0000
,
1000
0001
0010
0000
0000
0000
0000
0000
0100
1000
0100
1000
0100
0000
0000
0000
,
0010
0001
0110
0010
0000
0101
0001
1000
,
0110
0000
1010
0000
0010
0000
1000
0001
0100
0000
0000
0000
0010
0000
1000
0000
,
0001
0010
0100
0000
0000
0000
0010
0001
0010
0001
0010
0000
0001
0000
0100
0000
,
0010
0100
0001
0000
0000
0000
0000
0000
0100
0000
0010
0000
1000
0000
0100
0010
,
0001
0000
1000
0001
0000
0100
0010
0000
,
1000
0001
1000
0000
0001
0000
0001
1000
0001
0000
1000
0000
0010
0000
0100
0000
,
0010
0100
0001
0000
0000
0000
1010
0000
0000
0000
0100
0000
0001
0000
0100
0000
,
0010
1000
0010
0000
0000
0000
0000
0000
0100
0001
0010
0100
1000
0000
0000
0000
,
1000
0010
1010
0100
0000
1001
0100
0010
,
0101
0000
0011
0000
1000
0000
0010
0100
0001
0000
0000
0000
0010
0000
0100
0000
,
1000
0010
0100
0000
0000
0000
0001
0100
0010
1000
0010
0000
1000
0000
0001
0000
,
0100
0010
1000
0000
0000
0000
0000
0000
1001
0000
0001
0000
1000
0000
0010
0100
,
0010
0000
1000
0100
0000
0010
0001
0000
,
1000
0000
0001
0000
1000
0010
1000
0000
0100
0000
1000
0000
0100
0000
0010
0000
,
0100
0000
0010
0000
0001
0000
1000
0000
0001
0010
0001
0000
0001
0010
0001
0000
,
0001
0100
0001
0000
0001
0100
0001
0000
0001
0010
0100
1000
0010
0000
0000
0000
,
0010
0000
0101
0000
0000
0000
1010
0000
0100
0010
0100
0000
0100
0010
0100
0000
,
0100
0001
0100
0000
0100
0001
0100
0000
0010
0000
0100
0001
0010
0000
0001
0000
,
0000
0000
0001
0000
0000
0000
1000
0000
0001
0000
1000
0001
0100
0000
0010
0000
,
0000
0000
1000
0000
0001
0010
0100
0000
2010
0000
0000
3000
2001
0000
0000
3000
,
2010
0000
0000
3000
1000
0000
0001
0000
0000
0000
0000
0000
1000
0000
0000
0000
,
0001
0000
1000
0001
1001
0000
0001
0000
0000
0000
0000
0000
1000
0000
0000
0000
,
1000
0000
0001
1000
1001
0000
1000
0000
0000
0000
0000
0000
0001
0000
0000
0000
,
1000
0000
0000
0010
1000
0010
0100
0000
0001
0000
1000
0010
0100
0001
1000
0010
,
0100
0001
1000
0010
0100
0001
1000
0000
0100
0000
1000
0000
0010
0000
0000
0000
,
0100
0000
0010
0000
0101
0000
0210
0000
0000
0300
0201
0000
0000
0300
0110
0000
,
1000
0100
1000
0100
1000
0000
0100
0000
0000
0000
1000
0000
0010
0000
0100
0000
,
0000
0000
0001
0000
1000
0000
0010
0000
0100
0000
0010
0000
0100
0000
0001
0010
,
0100
0000
1000
0000
0100
0010
0001
0000
0100
0000
0001
0000
0010
0000
0000
0000
,
0001
0000
0010
0000
0101
0000
1002
0000
0000
0003
0012
0000
0000
0003
1001
0000
,
0100
0001
0100
0001
0100
0000
0010
0000
0000
0000
1000
0000
0010
0000
0100
0000
,
0001
0000
0010
0000
0100
0000
1000
0000
0100
0000
1000
0010
1000
0000
0001
0010
,
0000
0000
0100
0000
1000
0010
1000
0000
0001
0000
0100
0000
0010
0000
1000
0000
,
0010
0100
0001
2000
0000
0100
3000
0101
,
0100
0010
1000
0001
0100
0000
0010
0000
0000
0000
1000
0000
0010
0000
0100
0000
,
0000
0000
0001
0000
0100
0000
0010
0000
1000
0000
0010
0000
0100
0000
0010
1000
,
0100
0000
1000
0000
1000
0001
1000
0000
0010
0000
0100
0000
0001
0000
0100
0000
,
0010
1000
0010
0200
0000
0001
0300
1010
,
0100
0001
0010
0000
0100
1000
0100
0000
0000
0000
1000
0000
0001
0000
0100
0000
,
0001
0000
1000
0000
0100
0000
0010
0000
0001
0000
0001
1000
0001
0000
1000
0000
,
0100
0000
0010
0000
0001
1000
0001
0000
0000
0000
1000
0010
1000
0000
0001
0000
,
1000
0000
0010
0000
0100
0000
0010
0000
0000
0000
0010
1000
0100
0000
1100
0000
,
0000
0000
0010
0000
0100
0010
0110
0000
0000
0000
0000
0000
0000
0000
0000
0000
;

//---------------dance-single - ----------------
#NOTES:
     dance-single:
     :
     Hard:
     9:
     0.639,0.866,0.151,0.237,0.221,380.000,14.000,22.000,4.000,0.000:
0000
0000
0000
0000
,
0000
0000
0000
0000
,
0000
0000
0000
0000
,
0000
0000
0000
0000
,
0000
0000
0000
0000
,
0000
0000
0000
0000
1000
0001
0100
0000
,
0010
0000
1000
0001
0000
1000
0000
0001
,
0000
1000
0001
0100
0000
0010
1000
0001
,
0100
0010
1000
0010
0000
0000
0000
1000
,
0000
0000
0010
0100
0010
0000
0000
0000
2000
0000
0000
0000
0000
0000
3100
0010
,
0002
0000
0010
0023
0000
0130
1000
0001
,
1000
0010
0000
2000
0000
3001
0100
0010
,
1000
0010
0100
0110
0000
1000
0100
0010
,
0000
0000
0100
0000
1000
0000
0100
0000
1000
0000
0010
0100
0010
0000
1000
0000
,
0010
0100
0010
0000
1000
0000
0001
0100
0001
0000
0100
0001
0100
0000
0010
0000
,
0100
0001
0100
0000
0001
0000
1000
0001
1000
0000
0010
0100
0010
0100
0010
0100
,
0010
0000
0100
0000
0000
0000
0010
0000
1000
0100
1000
0100
1000
0100
1000
0000
,
0000
0001
0010
0100
0020
0000
0000
0000
,
0030
0000
0000
0001
1000
0000
0001
0100
0001
0000
0000
0000
0000
0000
0000
0000
,
0000
0000
MMMM
0000
1010
0000
0010
0100
,
0010
0100
0000
0101
0000
0000
1000
0001
,
1000
0001
0000
0000
1000
0001
0100
0000
,
0010
0010
0000
0020
0030
0020
0130
2000
,
3001
0000
0200
0000
0310
0000
1000
0010
1000
0000
0000
0000
0010
0000
1000
0000
,
0001
0100
0000
0110
0000
1000
0001
0100
,
0010
0100
0000
0000
0000
0010
1000
0010
,
0100
0000
0001
0100
0000
0000
0000
0000
,
0010
1000
0010
0000
0100
0000
0010
1000
0010
0000
1000
0000
0010
0000
0100
0000
,
0010
1000
0000
0011
0000
0000
0001
0100
,
0010
1000
0000
0000
0001
0010
0100
0000
,
1000
1000
0000
2000
3000
2000
3001
0200
,
0301
0000
0020
0000
0130
0000
1000
0100
1000
0000
0000
0000
0010
0000
0100
0000
,
0010
1000
0000
1001
0000
0100
0001
1000
,
0001
0100
0000
0000
0000
0001
1000
0010
,
2000
0000
3010
0200
0000
0001
0301
0000
,
1000
0000
0001
0000
1000
0001
1000
0000
0020
0000
0000
0000
0000
0000
0000
0000
,
0000
1030
0001
0200
0000
0000
0000
0000
,
0320
0000
2030
3002
,
0013
0102
0000
0203
0000
0000
0000
0000
,
0000
0000
0310
0000
0100
0001
0100
0000
0010
0000
1000
0100
1000
0000
0100
0000
,
0000
0000
0010
0000
0000
0000
0001
0000
1000
0000
0001
0010
0001
0000
0010
0000
,
0000
0100
0010
0001
1000
0000
0001
0000
,
1000
0100
1000
0001
0000
0000
1000
0000
,
0001
0000
0000
0001
1000
0000
0001
0000
0000
0000
0010
0000
0100
0000
0000
0000
,
0010
0000
0000
0010
0100
0000
0010
0000
0000
0000
0001
0000
1000
0000
0000
0000
,
0010
0000
0000
0000
0100
0010
0100
0000
0001
0000
1000
0100
0010
0001
1000
0100
,
0010
0000
0001
0000
0100
0001
0100
0000
0001
0000
1000
0000
0010
0000
0000
0000
,
0110
0000
0100
1001
0000
0001
0000
0100
,
0000
0010
1000
0100
0000
1000
0001
0100
,
0000
0001
1000
0010
0100
0001
1000
0010
,
0100
0000
0001
0000
1000
0010
1000
0000
0001
0000
0100
0000
0010
0000
0000
0000
,
1010
0000
0100
0101
0000
0001
0000
0100
,
0000
0001
1000
0001
0000
0100
0001
1000
,
0100
0000
0010
0000
0100
0000
1000
0000
0100
0000
0010
0001
0010
0000
0100
0000
,
0000
0000
1000
0000
0010
1000
0010
0000
0100
0000
0001
0000
1000
0000
0000
0000
,
0010
0010
0100
0101
0000
0100
0000
0010
,
0000
1000
0001
0100
0000
0001
1000
0010
,
0000
0100
0001
0010
0100
1000
0001
0010
,
0100
0000
1000
0000
0001
1000
0001
0000
1000
0000
0100
0000
1000
0000
0000
0000
,
0001
0001
1000
1100
0000
1000
0000
0001
,
0000
0100
0001
0100
0000
0001
1000
0001
,
0010
0000
0001
0000
0100
0000
0010
0000
1000
0000
0001
1000
0001
0000
1000
0000
,
0001
1000
0001
1000
0001
0000
1000
0000
0000
0000
0010
0100
0010
0000
0001
0000
,
1000
0000
0010
0000
0100
0000
0010
0000
0000
0000
0010
1000
0010
1000
0010
0000
,
0000
0010
0000
0110
0000
0000
0000
0000
;

//---------------dance-single - ----------------
#NOTES:
     dance-single:
     :
     Medium:
     6:
     0.496,0.727,0.108,0.258,0.000,288.000,10.000,24.000,0.000,0.000:
0000
0000
0000
0000
,
0000
0000
0000
0000
,
0000
0000
0000
0000
,
0000
0000
0000
0000
,
0000
0000
0000
0000
,
0000
0000
1010
0101
,
0001
0000
0100
0001
0000
1000
0000
0001
,
0000
1000
0001
1000
0000
0010
0100
0000
,
0110
0000
0010
1000
0000
0000
0000
1001
,
0000
1000
0100
0000
2000
0000
0000
0000
,
0002
3000
0203
0020
0300
0230
0020
0300
,
2030
0020
3000
2000
0030
3020
0200
0030
,
0002
0300
2003
0020
3000
0230
0302
0200
,
0003
0302
2000
0003
3010
0100
0001
0010
,
0001
1000
0001
0000
0100
0010
1000
0100
,
1000
0001
1000
0000
0010
0100
0010
1000
,
0100
0010
0000
0001
0100
0010
1000
0100
,
0000
1000
0001
0010
0100
0000
0000
0000
,
1000
0010
0100
0010
0100
0000
0000
0000
,
0000
0101
1000
0010
,
0100
0001
0000
2000
0000
3001
0100
0000
,
0001
1000
0000
0000
0010
1000
0010
0000
,
0100
0001
0000
0100
0000
0010
1000
0000
,
0010
0100
0010
0000
1000
0000
0010
0000
,
0100
0001
0000
0200
0000
0310
1000
0000
,
0001
0010
0000
0000
0100
1000
0100
0000
,
1000
0000
0001
0100
0000
0000
0010
0000
,
1000
0001
1000
0001
1000
0000
0010
0000
,
1000
0001
0000
0200
0000
0310
0100
0000
,
0001
0010
0000
0000
0001
0100
0010
0000
,
1000
0100
0000
1000
0000
0001
0100
0000
,
0001
0010
0001
0000
0100
0000
0010
0000
,
1000
0100
0000
0020
0000
0031
1000
0000
,
0010
0100
0000
0000
0001
0100
0001
0100
,
0010
0000
1000
0001
0000
0100
0010
0000
,
1000
0010
1000
0100
1000
0000
0001
0000
,
0100
0010
1010
0010
,
0100
0001
0110
0010
,
1000
0010
0101
0010
,
0100
0010
0100
0010
1000
0000
0001
0100
,
0000
0010
0000
0100
0001
0000
1000
0010
,
0000
0100
0001
0000
1000
0000
0010
0000
,
0100
0000
0010
1000
0000
0000
0001
0000
,
0100
0000
0001
0010
0000
0000
0100
0000
,
1000
0000
0010
0100
0000
0000
0001
0000
,
1000
0000
0010
0000
0200
0004
0000
0000
,
0000
0000
0000
0003
0301
0000
1000
0000
,
0010
0000
1000
0100
0000
0010
0000
0001
,
0000
0010
0100
1000
0000
0001
0010
0001
,
0000
1000
0100
0000
1000
0010
0100
0000
,
0001
0010
0001
0000
1000
0001
1000
0000
,
0010
0000
0100
0001
0000
1000
0000
0010
,
0000
1000
0100
1000
0000
0001
0100
0000
,
0010
0000
1000
0001
0000
0000
0000
0000
,
0000
0000
0000
0000
1000
0100
0010
0000
,
0100
0000
1000
0010
0000
1000
0000
0010
,
0000
1000
0010
0100
0000
0001
0010
0100
,
0000
1000
0100
0000
1000
0010
1000
0000
,
1010
0000
1000
0000
0001
0100
0010
0000
,
1000
0000
0010
0100
0000
0001
0000
1000
,
0000
0010
0100
0010
0000
1000
0001
0000
,
1000
0000
0010
0100
0000
0000
0001
0000
,
1000
0010
1000
0001
0000
1000
0010
0000
,
0100
0000
0001
0100
0000
0001
0010
0100
,
0000
1000
0000
1001
0000
0000
0000
0000
;

//---------------dance-single - ----------------
#NOTES:
     dance-single:
     :
     Easy:
     4:
     0.221,0.275,0.086,0.054,0.000,131.000,8.000,5.000,0.000,0.000:
0000
0000
0000
0000
,
0000
0000
0000
0000
,
0000
0000
0000
0000
,
0000
0000
0000
0000
,
0000
0000
0000
0000
,
0000
0000
0001
0000
,
1000
0000
0000
0001
0000
0000
0000
0100
,
0000
0000
0000
0101
0000
0000
0000
0000
,
0101
0000
0000
1000
0000
0000
0000
0010
,
0000
0100
0000
0000
1001
0000
0000
0000
,
0100
0000
0000
0001
0000
1000
0000
0000
,
0001
0000
0000
1000
0000
0000
0001
0000
,
1000
0000
0000
0010
0000
0000
0000
1000
,
0000
0000
0001
0000
1000
0000
0000
1001
,
0000
0000
0100
0000
0010
0000
0000
0110
,
0000
0001
0100
0000
,
0001
0000
0000
1100
0000
0000
0000
0011
,
0000
2000
0002
0000
,
0000
0000
3003
0000
,
0000
0000
1000
0000
,
0010
0000
0100
0000
,
0001
0000
1000
0010
,
1000
0000
0001
0000
,
0100
0000
0010
0000
,
1000
0000
0001
0000
,
0100
0000
0001
0000
,
0010
0000
0100
0000
,
0010
0000
0001
0000
,
0100
0000
0001
0000
,
1000
0000
0010
0100
,
0010
0000
0100
0000
,
0001
0000
1000
0000
,
0010
0000
0100
0000
,
0010
0000
1000
0000
,
0010
0000
0000
0100
0000
0000
0010
0000
,
1000
0010
1000
0000
,
0001
0000
0100
0000
,
0001
0000
1000
0000
,
0010
0000
0100
0000
,
0001
0000
1000
0000
,
0010
0000
0100
0000
,
0001
0000
1000
0000
,
0010
0000
0100
0000
,
0001
0000
1000
0000
,
0010
0000
0100
0000
,
0001
0000
1001
0000
,
0000
0000
0100
0000
,
0010
0000
0000
1000
0000
0000
0000
0010
,
0000
0000
0000
0100
0000
0000
0000
0001
,
0000
1000
0001
1000
,
0001
0000
0100
0000
,
0001
0000
0000
0100
0000
0000
0000
0010
,
0000
0000
0000
1000
0000
0000
0010
0000
,
0100
0000
0020
0000
0000
0000
0000
0030
,
0000
0000
0100
0000
,
0010
0000
0000
1000
0000
0000
0000
0100
,
0000
0000
0000
1000
0000
0000
0000
0001
,
0000
0100
0010
1000
,
0010
0000
0100
0000
,
0001
0000
0000
1000
0000
0000
0000
0001
,
0000
0000
0000
0100
0000
0000
0010
0000
,
1000
0020
0000
0130
,
0001
0100
0000
0001
,
1000
0000
0002
0000
0000
0000
0000
0003
;

//---------------dance-single - ----------------
#NOTES:
     dance-single:
     :
     Beginner:
     1:
     0.124,0.203,0.022,0.022,0.000,77.000,2.000,2.000,0.000,0.000:

0000
0000
0000
0000
,
0000
0000
0000
0000
,
0000
0000
0000
0000
,
0000
0000
0000
0000
,
0000
0000
0000
0000
,
0000
0000
0100
0000
,
0001
0000
0000
0000
,
0000
0000
0000
0000
,
0100
0000
0000
0000
,
0000
0000
0010
0000
,
0000
0000
1000
0000
,
0000
0000
0010
0000
,
0000
0000
0100
0000
,
0000
0000
0001
0000
,
1000
0000
0001
0000
,
1000
0000
0010
0000
,
0100
0000
0010
0000
,
1000
0000
0001
0000
,
0000
0000
2002
0000
,
0000
3003
1000
0000
,
0001
0000
1000
0000
,
0001
0000
0100
0000
,
0010
0000
0000
0000
,
1000
0000
0001
0000
,
1000
0000
0001
0000
,
0100
0000
0000
0000
,
0010
0000
0000
0000
,
1000
0000
0010
0000
,
0100
0000
0010
0000
,
0100
0000
0001
0000
,
0100
0000
0000
0000
,
0001
0000
1000
0000
,
0010
0000
1000
0000
,
0010
0000
1000
0000
,
0001
0000
0000
0000
,
0000
0000
0100
0000
,
0000
0000
0001
0000
,
0000
0000
1000
0000
,
0000
0000
0010
0000
,
0000
0000
0100
0000
,
0000
0000
0001
0000
,
0000
0000
1000
0000
,
0001
0000
1000
0000
,
0000
0000
0000
0000
,
0000
0000
0000
0000
,
0000
0000
0110
0000
,
0000
0000
1000
0000
,
0001
0000
0000
0000
,
0000
0100
0000
0010
,
0000
0000
1000
0000
,
0001
0000
1000
0000
,
0001
0000
0000
0000
,
0000
0100
0000
0010
,
0000
0100
0000
0000
,
0000
0000
0001
0000
,
1000
0000
0000
0000
,
0000
0010
0000
0100
,
0000
0000
0001
0000
,
1000
0000
0001
0000
,
0100
0000
0000
0000
,
0000
0010
0000
1000
,
0000
0001
0000
0000
,
0000
0100
0000
0000
,
0010
0000
0000
0000
;
